Нравится ли тебе мультик Машины сказки?

Да, очень
Смотреть можно
Мультфильм так-себе
Встречал и получше
Нет


Показать все опросы
  На сайте Multek.tv быстрее всех появляются новые серии мультфильма "Маша и Медведь".

  Добавьте наш сайт в закладки, нажмите CTRL+D





stranger 1-08-2013, 22:00 Просмотров: 84345    
Маша и медведь 37 серия

Маша и Медведь 37 серия скачать торрент Большое путешествие


Название: "Маша и медведь"
Год выхода: 2013
Номер серии: 37
Название серии: N/A
Выпущено: Россия, студия "Анимаккорд"
Жанр: Мультсериал
Режиссер: Марина Нефедова, Денис Червяцов, Олег Кузовков, Олег Ужинов, Георгий Орлов
Роли озвучивали: Эдуард Назаров, Алина Кукушкина, Борис Кутневич

Маша и Медведь 37 серия - описание серии: ...

Маша и Медведь 37 серия скачать торрент


Внимание! У вас нет прав для просмотра скрытого текста.






 


 






Уважаемый посетитель, пройдите регистрацию на сайте, чтобы получить больше привилегий..

#1 написал: T_Dembel (12 ноября 2013 14:09) Группа: Посетители | Регистрация: 13.09.2012 | ICQ:

Модератор, сделай нормальную ссылку торрента, а не возврат на общую страницу!

#2 написал: stranger (12 ноября 2013 14:18) Группа: Администраторы | Регистрация: 27.02.2012 | ICQ:

T_Dembel, оно отправляет на скачивание по прямой ссылке. В данный момент торрент не готов


--------------------
Admin)

#3 написал: stranger (12 ноября 2013 14:19) Группа: Администраторы | Регистрация: 27.02.2012 | ICQ:

Цитата: T_Dembel
Модератор, сделай нормальную ссылку торрента, а не возврат на общую страницу!

Цитата: stranger
T_Dembel, оно отправляет на скачивание по прямой ссылке. В данный момент торрент не готов


уже поправили


--------------------
Admin)

#4 написал: bober777 (12 ноября 2013 16:18) Группа: Посетители | Регистрация: 25.04.2013 | ICQ:

Файл не читается, проверьте...

#5 написал: stranger (12 ноября 2013 16:28) Группа: Администраторы | Регистрация: 27.02.2012 | ICQ:

bober777, проверили

Маша и медведь. Большое путешествие (Серия 37).mkv
General
Complete name : Маша и медведь. Большое путешествие (Серия 37).mkv
Format : Matroska
Format version : Version 2
File size : 109 MiB
Duration : 6mn 58s
Overall bit rate : 2 189 Kbps
Video #1
ID : 1
Format : MPEG-4 Visual
Format profile : Simple@L1
Format settings, BVOP : No
Format settings, QPel : No
Format settings, GMC : No warppoints
Format settings, Matrix : Default (H.263)
Codec ID : V_MPEG4/ISO/ASP
Codec ID/Info : Advanced Simple Profile
Bit rate : 1 954 Kbps
Width : 1 280 pixels
Height : 720 pixels
Display aspect ratio : 16:9
Frame rate mode : Variable
Color space : YUV
Chroma subsampling : 4:2:0
Bit depth : 8 bits
Scan type : Progressive
Compression mode : Lossy
Default : Yes
Forced : No
Audio #2
ID : 2
Format : MPEG Audio
Format version : Version 1
Format profile : Layer 3
Mode : Joint stereo
Mode extension : MS Stereo
Codec ID : A_MPEG/L3
Codec ID/Hint : MP3
Duration : 6mn 58s
Bit rate mode : Constant
Bit rate : 192 Kbps
Channel(s) : 2 channels
Sampling rate : 48.0 KHz
Compression mode : Lossy
Stream size : 9.58 MiB (9%)
Writing library : LAME3.98.2
Default : Yes
Forced : No


--------------------
Admin)

#6 написал: starfox521 (13 ноября 2013 16:26) Группа: Посетители | Регистрация: 12.09.2012 | ICQ:

Странно, но и как у bober777 на медиаплеере (Dune Duo) файл не играется. На компьютере - без проблем...
Чертовщина belay

#7 написал: stranger (13 ноября 2013 16:29) Группа: Администраторы | Регистрация: 27.02.2012 | ICQ:

starfox521, на таком?


попробуем принять меры


--------------------
Admin)

#8 написал: stranger (13 ноября 2013 16:32) Группа: Администраторы | Регистрация: 27.02.2012 | ICQ:

Цитата: starfox521
Странно, но и как у bober777 на медиаплеере (Dune Duo) файл не играется. На компьютере - без проблем...
Чертовщина

Цитата: stranger
starfox521, на таком?



попробуем принять меры


Для скачивания по прямой ссылке доступен файл в другом формате, попробуйте его:

_37_youtube.avi
Format : AVI
Format/Info : Audio Video Interleave
File size : 168 MiB
Duration : 6mn 58s
Overall bit rate : 3 364 Kbps
Writing application : Lavf52.110.0
Video #0
ID : 0
Format : MPEG-4 Visual
Format profile : Simple@L1
Format settings, BVOP : No
Format settings, QPel : No
Format settings, GMC : No warppoints
Format settings, Matrix : Default (H.263)
Codec ID : FMP4
Duration : 6mn 58s
Bit rate : 3 160 Kbps
Width : 640 pixels
Height : 360 pixels
Display aspect ratio : 16:9
Frame rate : 25.000 fps
Color space : YUV
Chroma subsampling : 4:2:0
Bit depth : 8 bits
Scan type : Progressive
Compression mode : Lossy
Bits/(Pixel*Frame) : 0.549
Stream size : 158 MiB (94%)
Writing library : Lavc52.122.0
Audio #1
ID : 1
Format : MPEG Audio
Format version : Version 1
Format profile : Layer 2
Codec ID : 50
Duration : 6mn 58s
Bit rate mode : Constant
Bit rate : 192 Kbps
Channel(s) : 2 channels
Sampling rate : 44.1 KHz
Compression mode : Lossy
Stream size : 9.58 MiB (6%)
Alignment : Aligned on interleaves
Interleave, duration : 26 ms (0.65 video frame)


--------------------
Admin)

#9 написал: starfox521 (14 ноября 2013 17:44) Группа: Посетители | Регистрация: 12.09.2012 | ICQ:

Да, медиа-плеер именно этот, что на фото smile
И прошу прощения -небольшое уточнение: при проигрывании на "Дюне" mkv-файла не было только изображения, звук был (хотя счетчик стоял на "нуле" при вызове INFO).
Новый файл _37_youtube.avi на плеере воспроизводится без проблем.

P.S. С 18-й серии все тяну отсюда и все воспроизводится штатно.

#10 написал: stranger (14 ноября 2013 17:51) Группа: Администраторы | Регистрация: 27.02.2012 | ICQ:

Цитата: starfox521
Новый файл _37_youtube.avi на плеере воспроизводится без проблем.


значит, можно считать проблему решенной winked

Цитата: starfox521
P.S. С 18-й серии все тяну отсюда и все воспроизводится штатно.


Стараемся


--------------------
Admin)

#11 написал: neprosto (30 декабря 2013 04:42) Группа: Посетители | Регистрация: 22.05.2012 | ICQ:

Спасибо! Обратите внимание, на этой странице у вас номер серии неправильный.

#12 написал: stranger (30 декабря 2013 09:52) Группа: Администраторы | Регистрация: 27.02.2012 | ICQ:

neprosto, благодарим! Поправили


--------------------
Admin)

Посетители, находящиеся в группе Гости, не могут оставлять комментарии к данной публикации.