Нравится ли тебе мультик Машины сказки?

Да, очень
Смотреть можно
Мультфильм так-себе
Встречал и получше
Нет


Показать все опросы
  На сайте Multek.tv быстрее всех появляются новые серии мультфильма "Маша и Медведь".

  Добавьте наш сайт в закладки, нажмите CTRL+D








stranger 7-03-2012, 09:53 Просмотров: 83518    
Маша и медведь 24 серия: Приятного аппетита

Маша и Медведь 24 серия скачать бесплатно. Приятного аппетита


Название: "Маша и медведь"
Год выхода: 2012
Номер серии: 24
Название серии: «Приятного аппетита»
Выпущено: Россия, студия "Анимаккорд"
Жанр: Мультсериал
Режиссер: Марина Нефедова, Денис Червяцов, Олег Кузовков, Олег Ужинов
Роли озвучивали: Эдуард Назаров, Алина Кукушкина, Борис Кутневич

Маша и Медведь 24 серия - описание серии: Медведь со своим дальним родственником - Пандой, которого мы уже знаем по 17 серии, намерены посвятить время восточной кухне, состряпав пельмешки по китайскому рецепту. Однако, чего и следовало ожидать, появляется Машенька, поймавшая гусеничку, и все переворачивается вверх тормашками...

Маша и медведь 24 серия скачать бесплатно

Маша и Медведь 24 серия скачать бесплатно. Приятного аппетита
Внимание! У вас нет прав для просмотра скрытого текста.





 


 





Уважаемый посетитель, пройдите регистрацию на сайте, чтобы получить больше привилегий..

#1 написал: fokss0 (28 марта 2012 08:08) Группа: Посетители | Регистрация: 28.03.2012 | ICQ:

А где кнопочка скачать?

#2 написал: stranger (28 марта 2012 09:07) Группа: Администраторы | Регистрация: 27.02.2012 | ICQ:

Уважаемый fokss0, 24-я серия выйдет в начале апреля, а 25-я - в начале мая. Тогды вы и сможете их у нас скачать, быстрее чем на других сайтах.

Добавьте наш сайт в закладки - нажмите CTRL+D, и тогда вы всегда сможете к нам зайти чтобы удобно и быстро скачать новые серии или просмотреть их онлайн fellow


--------------------
Admin)

#3 написал: Cnpym911 (15 апреля 2012 21:02) Группа: Посетители | Регистрация: 15.04.2012 | ICQ:

Уже середина апреля а скачать не могу

#4 написал: stranger (15 апреля 2012 22:53) Группа: Администраторы | Регистрация: 27.02.2012 | ICQ:

Cnpym911, студия обещает в апреле, но не называет точной даты request

так что и Вы и мы в ожидании angry


--------------------
Admin)

#5 написал: sandream (11 мая 2012 13:12) Группа: Посетители | Регистрация: 11.05.2012 | ICQ:

Звук в 24 серии отсутствует! Почему, кто знает?

#6 написал: stranger (11 мая 2012 13:38) Группа: Администраторы | Регистрация: 27.02.2012 | ICQ:

sandream, очевидно, звука нет только у Вас, так как:

1. у меня звук есть в 3 разных плеерах на 2 машинах
2. больше никто кроме Вас не жалуется...

Попробуйте поискать проблему на Вашей стороне - кодеки, драйвера, настройки плеера или системы feel

________________________________________________________
В подтверждение - отчет об анализе файла - как видите, аудиопоток есть:



Format : AVI
Format/Info : Audio Video Interleave
File size : 85.5 MiB
Duration : 6mn 17s
Overall bit rate : 1 902 Kbps
Director : Rip by Thunder
Writing application : VirtualDubMod 1.5.10.3 | www.virtualdub-fr.org || (build 2550/release)
Video #0
ID : 0
Format : MPEG-4 Visual
Format profile : Advanced Simple@L5
Format settings, BVOP : 2
Format settings, QPel : No
Format settings, GMC : No warppoints
Format settings, Matrix : Default (MPEG)
Codec ID : XVID
Codec ID/Hint : XviD
Duration : 6mn 17s
Bit rate : 1 700 Kbps
Width : 704 pixels
Height : 400 pixels
Display aspect ratio : 16:9
Frame rate : 25.000 fps
Color space : YUV
Chroma subsampling : 4:2:0
Bit depth : 8 bits
Scan type : Progressive
Compression mode : Lossy
Bits/(Pixel*Frame) : 0.241
Stream size : 76.4 MiB (89%)
Writing library : XviD 1.2.1 (UTC 2008-12-04)
Audio #1
ID : 1
Format : AC-3
Format/Info : Audio Coding 3
Mode extension : CM (complete main)
Codec ID : 2000
Duration : 6mn 17s
Bit rate mode : Constant
Bit rate : 192 Kbps
Channel(s) : 2 channels
Channel positions : Front: L R
Sampling rate : 48.0 KHz
Bit depth : 16 bits
Compression mode : Lossy
Stream size : 8.63 MiB (10%)
Alignment : Split accross interleaves
Interleave, duration : 40 ms (1.00 video frame)
Interleave, preload duration : 500 ms


--------------------
Admin)

#7 написал: kinroad2009 (31 мая 2012 16:29) Группа: Посетители | Регистрация: 27.05.2012 | ICQ:

Когда 24 серия будет в норм качестве,а не в Sat.rip.25,ито СУПЕР!

#8 написал: stranger (31 мая 2012 17:52) Группа: Администраторы | Регистрация: 27.02.2012 | ICQ:

kinroad2009, добавлен HDRip - наслаждайтесь качеством feel

26 серия на подходе smile


--------------------
Admin)

#9 написал: Ayauka89 (11 июня 2012 12:45) Группа: Посетители | Регистрация: 11.06.2012 | ICQ:

не могу скакчать бесплатно почему

#10 написал: stranger (11 июня 2012 13:23) Группа: Администраторы | Регистрация: 27.02.2012 | ICQ:

Цитата: Ayauka89
не могу скакчать бесплатно почему


"Потому что делаете что-то не так" (С)

Пожалуйста, уточните в чем именно проявляется Ваше "не могу" ? no


--------------------
Admin)

Посетители, находящиеся в группе Гости, не могут оставлять комментарии к данной публикации.

«    Июль 2019    »
ПнВтСрЧтПтСбВс
1
2
3
4
5
6
7
8
9
10
11
12
13
14
15
16
17
18
19
20
21
22
23
24
25
26
27
28
29
30
31